Principala | TORRENTE | Incarca | Muzica | Blogul unui programator moldovean | IndeXator | Forum | Cereri | CHAT | LOGIN | Register
  Guest, Profil | Torrentele mele | Clasa: Guests | IP 34.226.234.20 | Profilul meu | A zi Torrente noi (~50)  
  Ratio: , Încărcat: , Descărcat: | MUZICA Onlline | TOP Torrente Mesaje private: 0 necitite, total 0  


Principala » Panou de TORRENTE » Music_Video


Connect-R feat. Chris Mayer - Still [720p] [2010] 

Download [IMG] Download: Connect-R feat. Chris Mayer - Still [720p] [2010]
Descriere
 
Информация
Артист: Connect-R feat. Chris Mayer
Название: Still [720p]
Год выхода: 2010

Описание:


Connect-R şi Chris Mayer au lansat,la Music Channel, videoclipul piesei Still. Filmările s-au desfăsurat pe 26 martie, în studioul Stage-Expert. Regizorul clipului este Ciprian Florea, cel care s-a ocupat şi de clipul Burning Love.Începutul clipului Still aminteşte de anii '60, dar atmosfera revine repede în prezent, odata cu coregrafiile tipice Connect-R.
Single-ul Still a fost produs de Rappin On Production.


Aspect.Ratio.: 1.78  
Bitrate(kbps): 5021
Format/Build..: LAME3.97
Sampling.Rate.: 44.1KHz
Bitrate(kbps).: -V2 @ 176



  MEDIAINFO


General
Complete name                    : D:Connect-R_ft_Chris_Mayer-Still-720p-x264-2010-KAiZENconnect-r_ft_chris_mayer-still-720p-x264-2010-kaizen.mkv
Format                           : Matroska
File size                        : 157 MiB
Duration                         : 4mn 7s
Overall bit rate                 : 5 302 Kbps
Encoded date                     : UTC 2010-07-30 19:57:19
Writing application              : mkvmerge v4.1.1 ('Bouncin' Back') built on Jul  3 2010 22:54:08
Writing library                  : libebml v1.0.0 + libmatroska v1.0.0

Video
ID                               : 1
Format                           : AVC
Format/Info                      : Advanced Video Codec
Format profile                   : High@L4.1
Format settings, CABAC           : Yes
Format settings, ReFrames        : 5 frames
Muxing mode                      : Container profile=Unknown@4.1
Codec ID                         : V_MPEG4/ISO/AVC
Duration                         : 4mn 7s
Bit rate                         : 5 021 Kbps
Width                            : 1 280 pixels
Height                           : 720 pixels
Display aspect ratio             : 16:9
Frame rate                       : 25.000 fps
Resolution                       : 8 bits
Colorimetry                      : 4:2:0
Scan type                        : Progressive
Bits/(Pixel*Frame)               : 0.218
Stream size                      : 148 MiB (95%)
Writing library                  : x264 core 104 r1677 19df41a
Encoding settings                : cabac=1 / ref=5 / deblock=1:-3:-3 / analyse=0x3:0x133 / me=tesa / subme=10 / psy=1 / psy_rd=0.90:0.10 / mixed_ref=1 / me_range=64 / chroma_me=1 / trellis=2 / 8x8dct=1 / cqm=0 / deadzone=21,11 / fast_pskip=0 / chroma_qp_offset=-3 / threads=3 / sliced_threads=0 / nr=0 / decimate=1 / interlaced=0 / constrained_intra=0 / bframes=16 / b_pyramid=2 / b_adapt=2 / b_bias=0 / direct=3 / weightb=1 / open_gop=0 / weightp=2 / keyint=250 / keyint_min=25 / scenecut=40 / intra_refresh=0 / rc=crf / mbtree=0 / crf=20.0 / qcomp=0.60 / qpmin=10 / qpmax=51 / qpstep=4 / ip_ratio=1.40 / pb_ratio=1.30 / aq=1:0.70

Audio
ID                               : 2
Format                           : MPEG Audio
Format version                   : Version 1
Format profile                   : Layer 3
Format_Settings_Mode             : Joint stereo
Format_Settings_ModeExtension    : MS Stereo
Codec ID                         : A_MPEG/L3
Codec ID/Hint                    : MP3
Duration                         : 4mn 7s
Bit rate mode                    : Variable
Bit rate                         : 176 Kbps
Minimum bit rate                 : 32.0 Kbps
Channel(s)                       : 2 channels
Sampling rate                    : 44.1 KHz
Stream size                      : 5.19 MiB (3%)
Writing library                  : LAME3.97
Encoding settings                : -m j -V 2 -q 3 -lowpass 18.6 --vbr-new -b 32








  Screens:




     

     





















Файл
Видео:  MPEG4 Video (H264) 1280x720 25.00fps [Video]
Звук: MPEG Audio Layer 3 44100Hz stereo [Audio]






Informatie despre torrent
CategoriaMusic_Video
Statut
Verificat
Autorkopceak
Adaugat pe:
2019-09-15 6:59 PM Duminică
Vizionari:2737
Comentarii:1 | Voteaza:
HTML Code:

BB Code:

URL

Panel:
Doar pentru Adiministratie

Total comentarii : 1

1 by Costel at 2011-03-12 4:19 PM

[spoiler=Titel]fasdfsfsdf[/spoiler
Spam

Doar utilizatorii inregistrati pot comenta
[ Inregistrare | Login ]